User log in
User registration
Registrations are closed. If you have an invitation code, click here.
Email: forgotten email?
Password: lost pass?
  Resend activation email
Get VPN Now for FREE! Get VPN Now for FREE! Get VPN Now for FREE! Get VPN Now for FREE! Get VPN Now for FREE! Protect your privacy! Use a VPN When Downloading Torrents
Your IP Address is . Location is .
Your Internet Provider is tracking your torrent activity! Hide your IP ADDRESS with a VPN!
We strongly recommend using Trust.Zone VPN to anonymize your torrenting!
Also, while you are using Trld6156eust.zf69a38Zone VPN you get No Ads on Demonoid site Get zf69a38VPN Nzf69a38ow!
Details for Black Adam 2022 NEW CAM 720p x264 TD
Created by Ratio: 1.00DTRG 1 month ago 1   0
Movies : Action : Cam : English


tmpposter7351.jpg




Format : MPEG-4
Format profile : Base Media
Codec ID : isom (isom/iso2/avc1/mp41)
File size : 1.68 GiB
Duration : 1 h 57 min
Overall bit rate mode : Variable
Overall bit rate : 2 040 kb/s
Writing application : Lavf54.63.104

Video
ID : 1
Format : AVC
Format/Info : Advanced Video Codec
Format profile : [email protected]
Format settings : CABAC / 1 Ref Frames
Format settings, CABAC : Yes
Format settings, Reference : 1 frame
Codec ID : avc1
Codec ID/Info : Advanced Video Coding
Duration : 1 h 57 min
Duration_FirstFrame : 42 ms
Bit rate : 1 885 kb/s
Width : 1 280 pixels
Height : 520 pixels
Display aspect ratio : 2.462
Frame rate mode : Constant
Frame rate : 24.000 FPS
Color space : YUV
Chroma subsampling : 4:2:0
Bit depth : 8 bits
Scan type : Progressive
Bits/(Pixel*Frame) : 0.118
Stream size : 1.54 GiB (92%)
Writing library : x264 core 129
Encoding settings : cabac=1 / ref=1 / deblock=1:0:0 / analyse=0x1:0x131 / me=dia / subme=2 / psy=1 / psy_rd=1.00:0.00 / mixed_ref=0 / me_range=16 / chroma_me=1 / trellis=0 / 8x8dct=0 / cqm=0 / deadzone=21,11 / fast_pskip=1 / chroma_qp_offset=0 / threads=4 / lookahead_threads=1 / sliced_threads=0 / nr=0 / decimate=1 / interlaced=0 / bluray_compat=0 / constrained_intra=0 / bframes=0 / weightp=2 / keyint=250 / keyint_min=25 / scenecut=40 / intra_refresh=0 / rc_lookahead=40 / rc=abr / mbtree=1 / bitrate=1885 / ratetol=1.0 / qcomp=0.60 / qpmin=10 / qpmax=51 / qpstep=4 / ip_ratio=1.41 / aq=1:1.00
Codec configuration box : avcC

Audio
ID : 2
Format : AAC LC
Format/Info : Advanced Audio Codec Low Complexity
Codec ID : mp4a-40-2
Duration : 1 h 57 min
Duration_FirstFrame : 64 ms
Bit rate mode : Variable
Bit rate : 165 kb/s
Maximum bit rate : 192 kb/s
Channel(s) : 2 channels
Channel layout : L R
Sampling rate : 48.0 kHz
Frame rate : 46.875 FPS (1024 SPF)
Compression mode : Lossy
Stream size : 139 MiB (8%)
Default : Yes
Alternate group : 1









https://www.imdb.com/title/tt6443346


Plot: Nearly 5,000 years after he was bestowed with the almighty powers of the Egyptian gods—and imprisoned just as quickly—Black Adam is freed from his earthly tomb, ready to unleash his unique form of justice on the modern world.









Source Used IDiOTS - Tnx







vlcsnap-2022-10-25-14h47m48s987.png [ibb.co]


vlcsnap-2022-10-25-14h49m44s294.png [ibb.co]


vlcsnap-2022-10-25-14h50m09s066.png [ibb.co]


vlcsnap-2022-10-25-14h50m19s894.png [ibb.co]


vlcsnap-2022-10-25-14h51m25s697.png [ibb.co]




Facebook Twitter Digg Reddit LinkedIn StumbleUpon Email
Show Demonoid some love with BitCoin: 1DNoidyJgB159bLJT5hDnCkZ4uQrhkfBVk How to get BitCoins?
Peers: 0 seeders, 0 leechers, 41 total - Updated: 260 hours 35 minutes 58 seconds ago
Size: 1.71 GB  

Sponsored links
Related torrents
Torrents you may also like:
Download this torrent
Extra information
Tracker: https://inferno.demonoid.is/announce
Torrent hash: 4A79ABE7 4D22295A 80684E48 C94EF43E 06CC0B85
Files described inside the torrent: 3 [ Click here to show the full list ]
Comments
<< Prev        Next >>
| 1 - 1 | 1 items total
Posted by Ratio: 1.00muff 1 month ago [ Complain ] [ Send PM ]
Surprisingly good quality. Nice one. Ta Grin
| 1 - 1 | 1 items total
<< Prev        Next >>

Disclaimer: None of the files shown here are actually hosted or transmitted by this server. The links are provided solely by this site's users. The site moderation is also a service provided by the site's users. The administrator of this site (demonoid.is) cannot be held responsible for what its users post, or any other actions of its users. You may not use this site to distribute or download any material when you do not have the legal rights to do so. It is your own responsibility to adhere to these terms.

By using this site you indicate your agreement to our terms and conditions
   
Link to us | Contact us | API | Feeds/RSS | DMCA
This site and the Demonoid logo are Copyright © Demonoid. All rights reserved.

Show Demonoid some love with 1DNoidyJgB159bLJT5hDnCkZ4uQrhkfBVk